<?xml version="1.0" standalone="no"?>
<!DOCTYPE svg PUBLIC "-//W3C//DTD SVG 1.1//EN" "http://www.w3.org/Graphics/SVG/1.1/DTD/svg11.dtd" >
<svg xmlns="http://www.w3.org/2000/svg" xmlns:xlink="http://www.w3.org/1999/xlink" version="1.1">
<metadata></metadata>
<defs>
<font id="ibm_plex_sansregular" horiz-adv-x="1228" >
<font-face units-per-em="2048" ascent="1597" descent="-451" />
<missing-glyph horiz-adv-x="483" />
<glyph unicode="&#xfb01;" horiz-adv-x="1161" d="M59 913v144h172v213q0 111 57.5 178.5t174.5 67.5h160v-144h-228v-315h592v-1057h-164v913h-428v-913h-164v913h-172zM805 1397v26q0 41 23.5 67t76.5 26t77 -26t24 -67v-26q0 -41 -24 -66.5t-77 -25.5t-76.5 25.5t-23.5 66.5z" />
<glyph horiz-adv-x="0" />
<glyph horiz-adv-x="0" />
<glyph unicode="&#xd;" horiz-adv-x="483" />
<glyph unicode=" "  horiz-adv-x="483" />
<glyph unicode="&#x09;" horiz-adv-x="483" />
<glyph unicode="&#xa0;" horiz-adv-x="483" />
<glyph unicode="!" horiz-adv-x="581" d="M166 94v27q0 53 29.5 86t95.5 33t95.5 -33t29.5 -86v-27q0 -53 -29.5 -86t-95.5 -33t-95.5 33t-29.5 86zM201 1014v416h180v-416l-49 -635h-82z" />
<glyph unicode="&#x22;" horiz-adv-x="858" d="M174 942v574h148v-574h-148zM536 942v574h148v-574h-148z" />
<glyph unicode="#" horiz-adv-x="1460" d="M123 420v123h283l57 344h-260v123h282l72 420h131l-72 -420h316l72 420h131l-72 -420h262v-123h-285l-57 -344h262v-123h-282l-74 -420h-131l73 420h-315l-74 -420h-131l74 420h-262zM537 543h315l57 344h-315z" />
<glyph unicode="$" horiz-adv-x="1224" d="M106 244l121 108q66 -88 145 -140t183 -67v527q-211 47 -308 138t-97 251q0 82 29.5 146.5t82.5 111.5t127 74.5t164 36.5v167h127v-165q139 -12 240.5 -70.5t175.5 -161.5l-125 -94q-51 72 -123 118t-170 60v-479l18 -4q213 -47 310.5 -138.5t97.5 -252.5 q0 -176 -113.5 -284t-310.5 -126v-168h-127v168q-156 10 -263.5 76.5t-183.5 167.5zM311 1073q0 -104 60.5 -156.5t183.5 -85.5v453q-111 -14 -177.5 -67.5t-66.5 -143.5zM678 145q123 16 193.5 83t70.5 171t-60.5 159.5t-203.5 90.5v-504z" />
<glyph unicode="%" horiz-adv-x="1898" d="M133 1049q0 199 84 302t240 103t239.5 -103.5t83.5 -301.5q0 -199 -83.5 -302.5t-239.5 -103.5t-240 103.5t-84 302.5zM281 987q0 -237 176 -237t176 237v123q0 238 -176 238t-176 -238v-123zM375 0l991 1430h158l-992 -1430h-157zM1118 381q0 199 84 302t240 103 t239.5 -103t83.5 -302t-83.5 -302.5t-239.5 -103.5t-240 103.5t-84 302.5zM1266 319q0 -237 176 -237t176 237v123q0 238 -176 238t-176 -238v-123z" />
<glyph unicode="&#x26;" horiz-adv-x="1421" d="M147 371q0 80 25 141t67 109.5t94 85t107 67.5q-74 78 -117.5 159t-43.5 177q0 72 26.5 135.5t74.5 109.5t116.5 72.5t152.5 26.5q76 0 139.5 -22.5t108.5 -62.5t70.5 -97.5t25.5 -124.5q0 -72 -25.5 -128t-70.5 -103.5t-104.5 -87.5t-126.5 -76l321 -346 q31 78 47.5 165.5t20.5 180.5h278v-140h-145q-14 -90 -39 -168.5t-59 -146.5l278 -297h-213l-154 168q-23 -27 -57.5 -60.5t-84.5 -62.5t-118.5 -49.5t-154.5 -20.5q-106 0 -188.5 31t-137.5 85t-84 126t-29 154zM317 362q0 -113 77 -178t206 -65q104 0 180 40t129 107 l-383 414q-41 -23 -78.5 -47.5t-66.5 -58t-46.5 -77.5t-17.5 -104v-31zM440 1100q0 -61 38 -124t100 -132q49 27 95 56.5t82 64t58.5 72.5t22.5 81v25q0 84 -58.5 129t-136.5 45q-88 0 -144.5 -55.5t-56.5 -137.5v-24z" />
<glyph unicode="'" horiz-adv-x="495" d="M174 942v574h148v-574h-148z" />
<glyph unicode="(" horiz-adv-x="686" d="M170 639q0 147 28.5 284.5t79 255t118 214t145.5 163.5h155q-86 -78 -154.5 -176t-116.5 -208.5t-74.5 -225.5t-26.5 -221v-176q0 -109 26.5 -223.5t75.5 -225t117.5 -209t152.5 -172.5h-155q-76 63 -143.5 159.5t-118 215.5t-80 257t-29.5 288z" />
<glyph unicode=")" horiz-adv-x="686" d="M-10 -281q84 74 152.5 172.5t117.5 209t75.5 225t26.5 223.5v176q0 106 -26.5 221t-74.5 225.5t-116.5 209t-154.5 175.5h155q78 -68 145.5 -164t118 -213.5t79 -255t28.5 -284.5q0 -150 -29.5 -288t-80 -257t-118 -215t-143.5 -160h-155z" />
<glyph unicode="*" horiz-adv-x="921" d="M74 1196l45 137l282 -104l-12 301h143l-12 -301l283 104l45 -137l-291 -80l186 -237l-114 -84l-168 252l-168 -252l-115 84l187 237z" />
<glyph unicode="+" d="M137 555v139h400v428h155v-428h400v-139h-400v-428h-155v428h-400z" />
<glyph unicode="," horiz-adv-x="557" d="M80 -272q61 66 99 124t54 130q-41 10 -60 38.5t-19 69.5v29q0 53 29.5 87t95.5 34t95 -34t29 -87v-29q0 -84 -49 -185.5t-137 -176.5h-137z" />
<glyph unicode="-" horiz-adv-x="817" d="M141 535v176h535v-176h-535z" />
<glyph unicode="." horiz-adv-x="557" d="M154 94v27q0 53 29.5 86t95.5 33t95 -33t29 -86v-27q0 -53 -29 -86t-95 -33t-95.5 33t-29.5 86z" />
<glyph unicode="/" horiz-adv-x="784" d="M18 -309l535 1825h147l-534 -1825h-148z" />
<glyph unicode="0" d="M123 715q0 350 117.5 544.5t373.5 194.5t374 -194.5t118 -544.5t-118 -545t-374 -195t-373.5 195t-117.5 545zM303 598q0 -104 17.5 -190t54.5 -149.5t96 -98.5t143 -35t143.5 35t96.5 98.5t54.5 149.5t17.5 190v233q0 104 -17.5 190.5t-54.5 150t-96.5 98.5t-143.5 35 t-143 -35t-96 -98.5t-54.5 -149.5t-17.5 -191v-233z" />
<glyph unicode="1" d="M104 1075l379 355h269v-1278h368v-152h-940v152h400v1151h-15l-360 -336z" />
<glyph unicode="2" d="M141 1118q20 63 56 124t90.5 108t131.5 75.5t181 28.5t186 -30.5t137.5 -86t85 -131.5t29.5 -168q0 -84 -23.5 -155.5t-64.5 -136t-99 -126t-126 -122.5l-385 -346h752v-152h-938v176l467 430q100 92 167.5 195.5t67.5 208.5v24q0 119 -65.5 192.5t-198.5 73.5 q-66 0 -115 -18t-85 -51t-59.5 -77t-37.5 -95z" />
<glyph unicode="3" d="M86 219l129 98q27 -43 58.5 -77.5t70.5 -59t88 -38t115 -13.5q152 0 229.5 68.5t77.5 195.5v17q0 127 -78 195.5t-229 68.5h-168v149h156q145 0 217.5 66.5t72.5 171.5v14q0 113 -70.5 169t-185.5 56q-111 0 -180.5 -48t-114.5 -130l-127 99q27 43 65 85t89 74.5 t118.5 53t153.5 20.5q90 0 170 -23.5t138.5 -69.5t92.5 -113.5t34 -153.5q0 -70 -21.5 -125.5t-58.5 -96.5t-87 -69.5t-108 -42.5v-8q57 -12 111.5 -40t96.5 -72t67.5 -106.5t25.5 -142.5q0 -92 -34.5 -169t-98 -131t-154 -85t-198.5 -31q-92 0 -164 20.5t-127 55.5t-97 78 t-75 90z" />
<glyph unicode="4" d="M78 281v151l598 998h256v-1006h207v-143h-207v-281h-164v281h-690zM240 424h528v872h-10z" />
<glyph unicode="5" d="M158 219l129 98q27 -43 56.5 -77.5t65 -59t83 -38t112.5 -13.5q147 0 223 78t76 219v20q0 141 -75.5 219t-223.5 78q-98 0 -154.5 -35.5t-101.5 -84.5l-145 20l51 787h766v-152h-627l-41 -545h15q51 72 115.5 115t176.5 43q92 0 170 -31t135.5 -87t89 -138t31.5 -186 t-32.5 -191.5t-95 -150t-151.5 -97.5t-202 -35q-90 0 -158.5 20.5t-122 55.5t-93.5 78t-72 90z" />
<glyph unicode="6" d="M137 524q0 160 47 300.5t122 256t165 204.5t176 145h221q-115 -84 -205 -164t-157.5 -167t-114.5 -186.5t-76 -224.5l11 -4q51 88 132 146.5t212 58.5q92 0 170 -31t133 -88t87 -139t32 -182q0 -104 -34 -191.5t-96.5 -150t-151 -97.5t-194.5 -35q-111 0 -199.5 38 t-151 109t-95.5 173t-33 229zM315 426q0 -145 79 -223t220 -78t220 78t79 223v16q0 145 -78.5 223t-220.5 78q-141 0 -220 -77.5t-79 -223.5v-16z" />
<glyph unicode="7" d="M141 1016v414h938v-152l-536 -1278h-185l547 1282h-610v-266h-154z" />
<glyph unicode="8" d="M119 389q0 147 80 233.5t209 120.5v17q-113 39 -179.5 126t-66.5 210q0 164 118.5 261t333.5 97t334 -97t119 -261q0 -123 -66.5 -210t-179.5 -126v-17q129 -35 209 -120.5t80 -233.5q0 -88 -31.5 -163.5t-94 -131t-155 -87.5t-215.5 -32t-215 32t-154.5 87.5t-94 131 t-31.5 163.5zM301 381q0 -123 81.5 -189.5t231.5 -66.5t232 66.5t82 189.5v43q0 123 -82 189.5t-232 66.5t-231.5 -66.5t-81.5 -189.5v-43zM340 1049q0 -111 69.5 -168.5t204.5 -57.5t205 57.5t70 168.5v30q0 111 -69.5 168.5t-205.5 57.5q-135 0 -204.5 -57.5t-69.5 -168.5 v-30z" />
<glyph unicode="9" d="M137 981q0 104 34 191.5t96.5 149.5t149.5 97t195 35q111 0 200 -38t151.5 -108.5t95.5 -173t33 -229.5q0 -160 -47.5 -300t-122 -256t-164.5 -205t-176 -144h-222q115 84 205 164t158 167t115 186t75 224l-10 4q-51 -88 -132 -146t-212 -58q-92 0 -170 30.5t-133 88 t-87 138.5t-32 183zM315 987q0 -145 79 -223t220 -78t220 78t79 223v17q0 145 -78.5 223t-220.5 78q-141 0 -220 -78t-79 -223v-17z" />
<glyph unicode=":" horiz-adv-x="598" d="M174 94v27q0 53 29.5 86t95.5 33t95 -33t29 -86v-27q0 -53 -29 -86t-95 -33t-95.5 33t-29.5 86zM174 936v27q0 53 29.5 86t95.5 33t95 -33t29 -86v-27q0 -53 -29 -86t-95 -33t-95.5 33t-29.5 86z" />
<glyph unicode=";" horiz-adv-x="598" d="M100 -272q61 66 99 124t54 130q-41 10 -60 38.5t-19 69.5v29q0 53 29.5 87t95.5 34t95 -34t29 -87v-29q0 -84 -49 -185.5t-137 -176.5h-137zM174 936v27q0 53 29.5 86t95.5 33t95 -33t29 -86v-27q0 -53 -29 -86t-95 -33t-95.5 33t-29.5 86z" />
<glyph unicode="&#x3c;" d="M184 485v164l860 510v-172l-706 -412v-16l706 -412v-172z" />
<glyph unicode="=" d="M137 352v140h955v-140h-955zM137 762v139h955v-139h-955z" />
<glyph unicode="&#x3e;" d="M184 -25v172l707 412v16l-707 412v172l860 -510v-164z" />
<glyph unicode="?" horiz-adv-x="976" d="M47 1122q18 66 54 126.5t90.5 106.5t128 72.5t169.5 26.5q190 0 301 -104.5t111 -282.5q0 -98 -33.5 -171t-87 -124t-121 -82t-135.5 -43v-221h-157v336q168 8 263 82t95 203v28q0 104 -65.5 167t-176.5 63q-119 0 -189.5 -68t-94.5 -172zM322 94v27q0 53 29.5 86 t94.5 33q66 0 95.5 -33t29.5 -86v-27q0 -53 -29.5 -86t-95.5 -33t-95 33t-29 86z" />
<glyph unicode="@" horiz-adv-x="1824" d="M133 590q0 190 57.5 348t162 271.5t252 177t329.5 63.5q143 0 280.5 -44t243 -138t170 -245t64.5 -361q0 -106 -19.5 -200.5t-62.5 -165.5t-110.5 -113t-164.5 -42q-98 0 -147 49.5t-60 126.5h-8q-41 -82 -100 -129t-154 -47q-72 0 -136 28t-113.5 83t-78 140t-28.5 200 t28.5 200t78 140t114 82.5t135.5 27.5q94 0 149.5 -46t84.5 -111h8v139h141v-623q0 -80 28 -107.5t85 -27.5q96 0 145 98.5t49 270.5v94q0 135 -48 245.5t-132 188.5t-198.5 121t-245.5 43q-147 0 -268 -51t-209 -142.5t-136.5 -213t-48.5 -263.5v-120q0 -145 47.5 -266 t132.5 -209.5t203.5 -136.5t264.5 -48h473v-125h-476q-176 0 -320 59.5t-246.5 169t-159 264t-56.5 345.5zM682 510q0 -106 51 -170t162 -64q109 0 161 51.5t52 145.5v250q0 78 -51 131t-162 53t-162 -63.5t-51 -169.5v-164z" />
<glyph unicode="A" horiz-adv-x="1312" d="M47 0l500 1430h219l500 -1430h-181l-143 422h-577l-144 -422h-174zM406 573h493l-242 697h-10z" />
<glyph unicode="B" horiz-adv-x="1337" d="M190 0v1430h588q178 0 279.5 -100.5t101.5 -268.5q0 -80 -22.5 -135.5t-57.5 -91t-75.5 -53t-75.5 -23.5v-13q39 -2 87 -20t91 -58t72.5 -102.5t29.5 -150.5t-27.5 -164t-76.5 -131.5t-116.5 -87t-147.5 -31.5h-650zM362 152h424q111 0 174.5 56t63.5 165v69 q0 109 -63.5 165.5t-174.5 56.5h-424v-512zM362 811h396q102 0 159.5 51t57.5 148v69q0 96 -57.5 147.5t-159.5 51.5h-396v-467z" />
<glyph unicode="C" horiz-adv-x="1271" d="M119 707q0 360 151.5 553.5t423.5 193.5q180 0 302 -82t190 -231l-139 -84q-43 111 -131.5 177t-221.5 66q-92 0 -164.5 -34.5t-123 -99t-77 -153.5t-26.5 -200v-213q0 -221 102.5 -346t288.5 -125q137 0 229.5 70.5t135.5 187.5l137 -86q-68 -152 -195 -239t-307 -87 q-272 0 -423.5 185.5t-151.5 546.5z" />
<glyph unicode="D" horiz-adv-x="1374" d="M190 0v1430h480q133 0 241.5 -45.5t185.5 -134.5t117.5 -223t40.5 -312t-40.5 -312.5t-117.5 -223.5t-185.5 -134t-241.5 -45h-480zM362 152h308q88 0 161.5 29.5t127 87t83 140.5t29.5 189v233q0 106 -29.5 189.5t-83 141t-127 87t-161.5 29.5h-308v-1126z" />
<glyph unicode="E" horiz-adv-x="1193" d="M190 0v1430h873v-152h-701v-479h660v-152h-660v-495h701v-152h-873z" />
<glyph unicode="F" horiz-adv-x="1144" d="M190 0v1430h852v-152h-680v-479h621v-152h-621v-647h-172z" />
<glyph unicode="G" horiz-adv-x="1423" d="M119 715q0 178 43 316t123 231.5t192.5 142.5t249.5 49q193 0 322 -86t198 -227l-141 -86q-49 115 -146.5 180t-232.5 65q-94 0 -172 -33.5t-134 -95t-87 -147.5t-31 -193v-231q0 -106 31 -193.5t87 -148.5t138 -95t184 -34q74 0 140.5 19.5t117 58.5t79 97t28.5 138v142 h-315v151h483v-735h-160v209h-6q-27 -100 -130 -167t-267 -67q-131 0 -241 48.5t-187.5 141.5t-121.5 231.5t-44 318.5z" />
<glyph unicode="H" horiz-adv-x="1447" d="M190 0v1430h172v-631h723v631h172v-1430h-172v647h-723v-647h-172z" />
<glyph unicode="I" horiz-adv-x="819" d="M123 0v143h201v1143h-201v144h573v-144h-200v-1143h200v-143h-573z" />
<glyph unicode="J" horiz-adv-x="1044" d="M57 301l156 37q20 -92 77.5 -150.5t168.5 -58.5t172 67.5t61 204.5v877h-491v152h663v-1059q0 -90 -29.5 -164t-84 -125t-130 -79t-165.5 -28q-166 0 -267.5 89.5t-130.5 236.5z" />
<glyph unicode="K" horiz-adv-x="1298" d="M190 0v1430h172v-760h7l204 248l433 512h211l-533 -613l569 -817h-213l-475 702l-203 -225v-477h-172z" />
<glyph unicode="L" horiz-adv-x="1026" d="M190 0v1430h172v-1278h609v-152h-781z" />
<glyph unicode="M" horiz-adv-x="1662" d="M190 0v1430h230l409 -771h11l411 771h222v-1430h-168v1204h-11l-120 -239l-343 -623l-342 623l-120 239h-11v-1204h-168z" />
<glyph unicode="N" horiz-adv-x="1447" d="M190 0v1430h199l522 -873l172 -317h7v1190h167v-1430h-198l-522 872l-172 318h-7v-1190h-168z" />
<glyph unicode="O" horiz-adv-x="1449" d="M119 715q0 180 43 317t121.5 231.5t190.5 142.5t251 48q137 0 249.5 -48t191.5 -142.5t122 -231.5t43 -317t-43 -318.5t-122 -231.5t-191.5 -141.5t-249.5 -48.5q-139 0 -251 48.5t-190.5 141.5t-121.5 231.5t-43 318.5zM303 596q0 -106 31 -192.5t87 -147.5t134 -94 t170 -33t170 33t134 94t87 147t31 193v238q0 106 -31 192t-87 147.5t-134 94t-170 32.5t-170 -32.5t-134 -94t-87 -147.5t-31 -192v-238z" />
<glyph unicode="P" horiz-adv-x="1241" d="M190 0v1430h570q193 0 296 -110t103 -300t-103.5 -300t-295.5 -110h-398v-610h-172zM362 762h398q102 0 158.5 53t56.5 152v106q0 98 -56.5 151.5t-158.5 53.5h-398v-516z" />
<glyph unicode="Q" horiz-adv-x="1449" d="M119 715q0 180 43 317t121.5 231.5t190.5 142.5t251 48q137 0 249.5 -48t191.5 -142.5t122 -231.5t43 -317q0 -330 -137 -515.5t-373 -217.5v-175h219v-143h-211q-86 0 -129 48t-43 120v145q-123 12 -223 65.5t-169.5 147t-107.5 225.5t-38 300zM303 596 q0 -106 31 -192.5t87 -147.5t134 -94t170 -33t170 33t134 94t87 147t31 193v238q0 106 -31 192t-87 147.5t-134 94t-170 32.5t-170 -32.5t-134 -94t-87 -147.5t-31 -192v-238z" />
<glyph unicode="R" horiz-adv-x="1310" d="M190 0v1430h570q188 0 293.5 -104.5t105.5 -301.5q0 -158 -72.5 -259t-214.5 -134l328 -631h-194l-310 614h-334v-614h-172zM362 762h398q102 0 158.5 53t56.5 152v106q0 98 -56.5 151.5t-158.5 53.5h-398v-516z" />
<glyph unicode="S" horiz-adv-x="1189" d="M86 225l127 107q76 -100 168 -152.5t217 -52.5q154 0 234.5 73.5t80.5 196.5q0 102 -61 157.5t-203 88.5l-117 27q-197 45 -300 136t-103 257q0 94 35 168t97.5 123t149.5 74.5t191 25.5q162 0 277.5 -59.5t195.5 -173.5l-129 -95q-59 82 -143 129.5t-209 47.5 q-137 0 -216 -58.5t-79 -175.5q0 -102 66.5 -154.5t201.5 -83.5l117 -26q211 -47 305 -143.5t94 -255.5q0 -98 -33.5 -178.5t-97 -135.5t-154.5 -86t-206 -31q-174 0 -297 67t-209 183z" />
<glyph unicode="T" horiz-adv-x="1171" d="M45 1278v152h1081v-152h-454v-1278h-172v1278h-455z" />
<glyph unicode="U" horiz-adv-x="1388" d="M180 586v844h172v-885q0 -205 76 -310.5t266 -105.5t266 105.5t76 310.5v885h172v-844q0 -156 -27.5 -270.5t-89 -190.5t-161 -113t-242.5 -37t-240.5 37t-157 113t-85 190.5t-25.5 270.5z" />
<glyph unicode="V" horiz-adv-x="1247" d="M41 1430h184l236 -721l157 -537h11l162 537l237 721h178l-481 -1430h-209z" />
<glyph unicode="W" horiz-adv-x="1824" d="M41 1430h182l154 -689l119 -534h4l133 534l180 689h197l174 -689l133 -532h6l123 532l162 689h176l-367 -1430h-190l-187 713l-131 524h-4l-135 -524l-190 -713h-191z" />
<glyph unicode="X" horiz-adv-x="1255" d="M49 0l467 727l-455 703h207l359 -570h4l366 570h197l-459 -697l471 -733h-207l-374 600h-4l-375 -600h-197z" />
<glyph unicode="Y" horiz-adv-x="1214" d="M27 1430h196l381 -689h6l381 689h197l-498 -859v-571h-172v565z" />
<glyph unicode="Z" horiz-adv-x="1187" d="M74 0v156l825 1122h-782v152h968v-156l-827 -1122h856v-152h-1040z" />
<glyph unicode="[" horiz-adv-x="649" d="M190 -283v1839h336v-129h-194v-1581h194v-129h-336z" />
<glyph unicode="\" horiz-adv-x="784" d="M82 1516h147l531 -1825h-148z" />
<glyph unicode="]" horiz-adv-x="649" d="M123 -154h194v1581h-194v129h336v-1839h-336v129z" />
<glyph unicode="^" d="M102 672l424 758h176l424 -758l-125 -66l-383 672h-8l-383 -672z" />
<glyph unicode="_" horiz-adv-x="1157" d="M61 -195h1035v-143h-1035v143z" />
<glyph unicode="`" d="M383 1524l149 71l175 -348l-107 -49z" />
<glyph unicode="a" horiz-adv-x="1093" d="M90 295q0 150 109.5 229.5t341.5 79.5h209v105q0 113 -61.5 172t-188.5 59q-96 0 -161 -43t-108 -115l-98 92q43 86 137.5 146.5t237.5 60.5q193 0 299 -94t106 -262v-582h121v-143h-92q-92 0 -132 49t-50 123h-10q-35 -98 -115 -147.5t-191 -49.5q-168 0 -261 86 t-93 234zM262 279q0 -78 56.5 -121t152.5 -43q61 0 112.5 14t88.5 41t57.5 61.5t20.5 75.5v174h-218q-141 0 -205.5 -41t-64.5 -118v-43z" />
<glyph unicode="b" horiz-adv-x="1187" d="M174 0v1516h164v-631h8q41 100 120 148t189 48q98 0 178 -38.5t136.5 -110.5t86 -174.5t29.5 -229.5t-29.5 -229t-86 -174t-136 -111t-178.5 -39q-215 0 -309 197h-8v-172h-164zM338 338q0 -51 21.5 -91t58.5 -67.5t87 -42t105 -14.5q139 0 219 87t80 228v180 q0 141 -79.5 228.5t-219.5 87.5q-55 0 -105 -15.5t-87 -42t-58.5 -64.5t-21.5 -81v-393z" />
<glyph unicode="c" horiz-adv-x="1030" d="M96 528q0 127 32 229.5t92.5 174.5t148.5 110.5t198 38.5q158 0 253 -68.5t143 -178.5l-138 -70q-29 82 -94 127t-164 45q-74 0 -129 -23.5t-92 -65.5t-55.5 -100.5t-18.5 -128.5v-180q0 -139 75 -228t220 -89q199 0 287 184l119 -80q-51 -115 -152.5 -182.5 t-253.5 -67.5q-111 0 -198.5 39t-148 111t-92.5 174t-32 229z" />
<glyph unicode="d" horiz-adv-x="1187" d="M102 528q0 127 30 229.5t86 174.5t136 110.5t178 38.5q111 0 190 -48t120 -148h8v631h164v-1516h-164v172h-8q-96 -197 -310 -197q-98 0 -178 39t-136 111t-86 174t-30 229zM279 438q0 -141 80 -228t219 -87q55 0 105 14.5t87 42t58.5 67.5t21.5 91v393q0 43 -21.5 81 t-58.5 64.5t-87 42t-105 15.5q-139 0 -219 -87t-80 -229v-180z" />
<glyph unicode="e" horiz-adv-x="1124" d="M96 528q0 125 34 227.5t96.5 175.5t149.5 111.5t195 38.5q106 0 190.5 -38.5t144 -107.5t91 -163t31.5 -207v-78h-760v-49q0 -68 21.5 -126t61.5 -101t98.5 -67.5t132.5 -24.5q100 0 174.5 47t115.5 135l117 -84q-51 -109 -159.5 -175.5t-258.5 -66.5q-109 0 -195.5 39 t-149 112t-96.5 174t-34 228zM268 610h584v23q0 141 -77 226t-204 85q-68 0 -123 -23.5t-95 -66.5t-62.5 -101.5t-22.5 -127.5v-15z" />
<glyph unicode="f" horiz-adv-x="663" d="M59 913v144h172v213q0 111 57.5 178.5t174.5 67.5h160v-144h-228v-315h228v-144h-228v-913h-164v913h-172z" />
<glyph unicode="g" horiz-adv-x="1081" d="M88 -174q0 86 45 134t123 71v22q-94 45 -94 148q0 80 51 122t131 62v8q-94 45 -146.5 129t-52.5 195q0 80 29 147.5t81 115.5t125 74.5t163 26.5q113 0 200 -41v19q0 61 29 101t94 40h158v-143h-201v-68q57 -49 89 -117.5t32 -154.5q0 -80 -28.5 -147.5t-81 -115.5 t-126 -75t-163.5 -27q-51 0 -103 10q-53 -14 -96 -41.5t-43 -76.5q0 -47 45 -63.5t117 -16.5h225q197 0 286 -75t89 -206q0 -164 -128 -240.5t-384 -76.5q-248 0 -356.5 67.5t-108.5 192.5zM242 -133q0 -70 52 -119t177 -49h152q137 0 212.5 43t75.5 129q0 63 -48 101 t-171 38h-352q-98 -45 -98 -143zM317 688q0 -104 62 -154.5t166 -50.5t165.5 50.5t61.5 154.5v57q0 104 -61.5 154.5t-165.5 50.5t-166 -50t-62 -155v-57z" />
<glyph unicode="h" horiz-adv-x="1163" d="M174 0v1516h164v-631h8q39 90 109.5 143t189.5 53q164 0 259 -105.5t95 -297.5v-678h-163v649q0 285 -240 285q-49 0 -95 -12.5t-83 -37t-58.5 -62.5t-21.5 -89v-733h-164z" />
<glyph unicode="i" horiz-adv-x="512" d="M156 1397v26q0 41 23.5 67t76.5 26t76.5 -26t23.5 -67v-26q0 -41 -23.5 -66.5t-76.5 -25.5t-76.5 25.5t-23.5 66.5zM174 0v1057h164v-1057h-164z" />
<glyph unicode="j" horiz-adv-x="512" d="M2 -266h172v1323h164v-1221q0 -111 -55.5 -178.5t-173.5 -67.5h-107v144zM156 1397v26q0 41 23.5 67t76.5 26t76.5 -26t23.5 -67v-26q0 -41 -23.5 -66.5t-76.5 -25.5t-76.5 25.5t-23.5 66.5z" />
<glyph unicode="k" horiz-adv-x="1079" d="M174 0v1516h164v-961h8l162 180l299 322h199l-392 -418l430 -639h-198l-350 539l-158 -162v-377h-164z" />
<glyph unicode="l" horiz-adv-x="557" d="M174 170v1346h164v-1373h156v-143h-146q-86 0 -130 48t-44 122z" />
<glyph unicode="m" horiz-adv-x="1787" d="M174 0v1057h164v-172h8q18 41 42 76.5t57.5 62.5t78.5 42t107 15q104 0 192 -50t131 -165h4q29 86 108 150.5t214 64.5q162 0 253 -105.5t91 -297.5v-678h-164v649q0 141 -55 213t-176 72q-49 0 -93 -12.5t-79 -37t-55.5 -62.5t-20.5 -89v-733h-164v649q0 141 -55 213 t-172 72q-49 0 -94 -12.5t-80 -37t-56.5 -62.5t-21.5 -89v-733h-164z" />
<glyph unicode="n" horiz-adv-x="1163" d="M174 0v1057h164v-172h8q39 90 109.5 143t189.5 53q164 0 259 -105.5t95 -297.5v-678h-163v649q0 285 -240 285q-49 0 -95 -12.5t-83 -37t-58.5 -62.5t-21.5 -89v-733h-164z" />
<glyph unicode="o" horiz-adv-x="1146" d="M96 528q0 125 35 227.5t97.5 175.5t150.5 111.5t194 38.5t193.5 -38.5t151 -111.5t98.5 -175.5t35 -227.5q0 -127 -35 -228t-98.5 -174t-151 -112t-193.5 -39t-194 39t-150.5 112t-97.5 174t-35 228zM272 453q0 -168 84 -250t217 -82t217 82t84 250v151q0 168 -83.5 250 t-217.5 82q-133 0 -217 -82t-84 -250v-151z" />
<glyph unicode="p" horiz-adv-x="1187" d="M174 -410v1467h164v-172h8q41 100 120 148t189 48q98 0 178 -38.5t136.5 -110.5t86 -174.5t29.5 -229.5t-29.5 -229t-86 -174t-136 -111t-178.5 -39q-215 0 -309 197h-8v-582h-164zM338 338q0 -51 21.5 -91t58.5 -67.5t87 -42t105 -14.5q139 0 219 87t80 228v180 q0 141 -79.5 228.5t-219.5 87.5q-55 0 -105 -15.5t-87 -42t-58.5 -64.5t-21.5 -81v-393z" />
<glyph unicode="q" horiz-adv-x="1187" d="M102 528q0 127 30 229.5t86 174.5t136 110.5t178 38.5q111 0 190 -48t120 -148h8v172h164v-1467h-164v582h-8q-96 -197 -310 -197q-98 0 -178 39t-136 111t-86 174t-30 229zM279 438q0 -141 80 -228t219 -87q55 0 105 14.5t87 42t58.5 67.5t21.5 91v393q0 43 -21.5 81 t-58.5 64.5t-87 42t-105 15.5q-139 0 -219 -87t-80 -229v-180z" />
<glyph unicode="r" horiz-adv-x="751" d="M174 0v1057h164v-195h10q29 76 102.5 135.5t202.5 59.5h64v-164h-96q-133 0 -208 -50t-75 -126v-717h-164z" />
<glyph unicode="s" horiz-adv-x="997" d="M74 182l116 94q61 -78 137 -119.5t177 -41.5q104 0 162.5 45t58.5 127q0 61 -40 105t-144 61l-84 12q-74 10 -135.5 31.5t-107.5 57.5t-71.5 89t-25.5 127q0 78 28.5 136.5t78.5 97t120 58t150 19.5q129 0 216 -45t152 -125l-108 -98q-35 49 -102.5 89t-170.5 40 q-102 0 -154.5 -44t-52.5 -120q0 -78 52.5 -112.5t150.5 -51.5l82 -12q176 -27 250 -101.5t74 -195.5q0 -154 -104.5 -242t-286.5 -88q-147 0 -247 56.5t-171 150.5z" />
<glyph unicode="t" horiz-adv-x="718" d="M59 913v144h99q53 0 72.5 21.5t19.5 74.5v197h147v-293h232v-144h-232v-770h215v-143h-204q-86 0 -130.5 48t-44.5 126v739h-174z" />
<glyph unicode="u" horiz-adv-x="1163" d="M164 379v678h164v-649q0 -285 241 -285q49 0 95.5 12t82 37t57 62.5t21.5 91.5v731h164v-1057h-164v172h-8q-16 -37 -39.5 -73t-58.5 -63.5t-84 -44t-115 -16.5q-164 0 -260 105.5t-96 298.5z" />
<glyph unicode="v" horiz-adv-x="1007" d="M37 1057h164l184 -525l115 -360h10l115 360l188 525h158l-373 -1057h-190z" />
<glyph unicode="w" horiz-adv-x="1572" d="M63 1057h160l113 -457l113 -463h4l129 463l133 457h145l137 -457l131 -463h5l108 463l115 457h153l-280 -1057h-203l-147 508l-93 321h-4l-90 -321l-147 -508h-199z" />
<glyph unicode="x" horiz-adv-x="1038" d="M43 0l391 532l-375 525h193l268 -393h6l279 393h182l-373 -512l381 -545h-192l-275 414h-6l-297 -414h-182z" />
<glyph unicode="y" horiz-adv-x="1021" d="M35 1057h164l254 -719l49 -172h10l57 172l256 719h162l-473 -1303q-18 -47 -36.5 -78.5t-45 -50t-66.5 -27t-98 -8.5h-84v144h166l80 225z" />
<glyph unicode="z" horiz-adv-x="950" d="M68 0v137l600 776h-582v144h780v-123l-612 -791h629v-143h-815z" />
<glyph unicode="{" horiz-adv-x="702" d="M45 557v160q86 0 142.5 46t56.5 134v492q0 72 41 119.5t123 47.5h172v-129h-195v-512q0 -96 -54.5 -170.5t-140.5 -91.5v-32q86 -16 140.5 -91t54.5 -172v-512h195v-129h-172q-82 0 -123 48.5t-41 119.5v492q0 88 -56.5 134t-142.5 46z" />
<glyph unicode="|" horiz-adv-x="643" d="M252 -283v1839h139v-1839h-139z" />
<glyph unicode="}" horiz-adv-x="702" d="M123 -154h194v512q0 96 54.5 171t140.5 92v32q-86 16 -140.5 91t-54.5 171v512h-194v129h172q82 0 123 -48t41 -119v-492q0 -88 56 -134t142 -46v-160q-86 0 -142 -46t-56 -134v-492q0 -72 -41 -120t-123 -48h-172v129z" />
<glyph unicode="~" d="M125 653q41 51 97.5 82t148.5 31q76 0 134 -20.5t130 -55.5q57 -29 112.5 -49t118.5 -20q51 0 87 15t83 50l68 -90q-41 -51 -97.5 -82t-148.5 -31q-76 0 -134 20.5t-130 55.5q-57 29 -112.5 49.5t-119.5 20.5q-51 0 -86.5 -15.5t-82.5 -50.5z" />
<glyph unicode="&#xa1;" horiz-adv-x="581" d="M166 936v27q0 53 29.5 85.5t95.5 32.5t95.5 -32.5t29.5 -85.5v-27q0 -53 -29.5 -86t-95.5 -33t-95.5 33t-29.5 86zM199 43l49 635h82l49 -635v-416h-180v416z" />
<glyph unicode="&#xa2;" horiz-adv-x="1052" d="M96 528q0 231 100.5 376t284.5 171v215h144v-211q129 -10 211 -76.5t125 -164.5l-132 -72q-55 145 -206 168v-811q160 18 233 180l119 -80q-45 -104 -133 -169.5t-217 -76.5v-210h-144v215q-186 27 -285.5 172t-99.5 374zM272 438q0 -117 53.5 -201.5t157.5 -107.5v799 q-104 -23 -157.5 -107t-53.5 -203v-180z" />
<glyph unicode="&#xa3;" horiz-adv-x="1218" d="M123 586v143h145q-23 70 -43 138.5t-20 154.5q0 94 31.5 174t92 137.5t148.5 89t199 31.5q158 0 263 -61.5t175 -171.5l-129 -95q-53 82 -128 129.5t-187 47.5q-133 0 -210 -74t-77 -223q0 -78 18.5 -144.5t38.5 -132.5h443v-143h-406q6 -41 6 -82q0 -115 -46 -207 t-107 -133v-10h745v-154h-907v205q86 37 116.5 115.5t30.5 164.5q0 27 -2 52.5t-6 48.5h-184z" />
<glyph unicode="&#xa4;" horiz-adv-x="1253" d="M37 223l217 217q-66 115 -66 275t66 274l-217 217l98 97l209 -209q111 92 283 92t282 -92l209 209l99 -97l-218 -217q66 -115 66 -274q0 -160 -66 -275l218 -217l-99 -96l-209 209q-110 -92 -282 -92t-283 92l-209 -209zM362 649q0 -135 73 -201.5t192 -66.5t191.5 66.5 t72.5 201.5v131q0 135 -73 202t-191 67q-119 0 -192 -67t-73 -202v-131z" />
<glyph unicode="&#xa5;" horiz-adv-x="1239" d="M70 1430h192l359 -646h10l348 646h190l-383 -662h279v-137h-360v-197h360v-137h-360v-297h-170v297h-361v137h361v197h-361v137h279z" />
<glyph unicode="&#xa6;" horiz-adv-x="643" d="M252 -283v725h139v-725h-139zM252 831v725h139v-725h-139z" />
<glyph unicode="&#xa7;" horiz-adv-x="1200" d="M156 555q0 98 58 174t165 119v14q-68 45 -110 110.5t-42 157.5q0 74 29 133.5t82 102.5t128 65.5t165 22.5q92 0 182 -26.5t162 -88.5l-96 -114q-49 41 -110.5 64.5t-139.5 23.5q-115 0 -178.5 -48t-63.5 -132q0 -78 56.5 -123t156.5 -76l129 -39q166 -49 240.5 -129 t74.5 -184q0 -98 -58 -174t-167 -119v-13q74 -47 114 -113.5t40 -154.5q0 -76 -30 -136t-83 -102t-128 -64.5t-165 -22.5q-92 0 -181 26.5t-161 87.5l94 115q49 -41 111 -64.5t139 -23.5q115 0 178.5 48t63.5 132q0 78 -56.5 123t-156.5 76l-129 39q-166 49 -239.5 129 t-73.5 184zM317 598q0 -86 57.5 -140.5t180.5 -88.5l127 -35q16 -4 32.5 -10.5t33.5 -12.5q61 45 98 100.5t37 127.5q0 86 -58.5 140t-181.5 89l-127 35q-16 4 -32.5 10t-32.5 12q-61 -43 -97.5 -99t-36.5 -128z" />
<glyph unicode="&#xa8;" d="M324 1360v22q0 43 23.5 69t76.5 26t76.5 -26t23.5 -69v-22q0 -43 -23.5 -68.5t-76.5 -25.5t-76.5 25.5t-23.5 68.5zM705 1360v22q0 43 23.5 69t76.5 26t76.5 -26t23.5 -69v-22q0 -43 -23.5 -68.5t-76.5 -25.5t-76.5 25.5t-23.5 68.5z" />
<glyph unicode="&#xa9;" horiz-adv-x="1589" d="M111 715q0 170 53 307t145 232.5t217 146.5t269 51q143 0 268 -51t217 -146.5t145.5 -232.5t53.5 -307t-53.5 -307.5t-145.5 -232.5t-217 -146.5t-268 -51.5t-268.5 51.5t-217.5 146.5t-145 232.5t-53 307.5zM250 653q0 -119 40 -220t112.5 -175t172 -116t220.5 -42 q119 0 219 42t173 116t112.5 175.5t39.5 219.5v123q0 119 -39.5 220.5t-112.5 175t-173.5 115.5t-218.5 42q-121 0 -220.5 -42t-172 -115.5t-112.5 -175t-40 -220.5v-123zM473 715q0 182 89 289.5t249 107.5q104 0 171 -49t101 -129l-116 -66q-23 53 -60 84t-96 31 q-90 0 -136 -56.5t-46 -146.5v-133q0 -90 46 -146.5t136 -56.5q66 0 104.5 34t69.5 89l111 -69q-35 -78 -105.5 -129.5t-179.5 -51.5q-160 0 -249 107.5t-89 290.5z" />
<glyph unicode="&#xaa;" horiz-adv-x="817" d="M82 905q0 111 79 162t226 51h145v58q0 160 -153 159q-70 0 -117 -29.5t-69 -76.5l-87 69q31 53 98.5 98.5t180.5 45.5q129 0 203 -67.5t74 -192.5v-351h75v-114h-69q-59 0 -93 26.5t-34 81.5h-9q-23 -47 -78 -83.5t-149 -36.5q-109 0 -166 55t-57 145zM211 907 q0 -98 123 -98q39 0 74.5 9t63.5 26.5t44 41t16 54.5v84h-149q-84 0 -128 -24.5t-44 -71.5v-21z" />
<glyph unicode="&#xab;" horiz-adv-x="1050" d="M74 504v155l393 340l49 -110l-280 -307l280 -308l-49 -110zM502 504v155l393 340l49 -110l-280 -307l280 -308l-49 -110z" />
<glyph unicode="&#xac;" d="M137 555v139h955v-534h-142v395h-813z" />
<glyph unicode="&#xad;" horiz-adv-x="817" d="M141 535v176h535v-176h-535z" />
<glyph unicode="&#xae;" horiz-adv-x="974" d="M82 1032q0 90 31.5 167t87 134.5t129 89t157.5 31.5q82 0 156 -31.5t129 -89t88 -134.5t33 -167t-33 -167t-88 -134t-129 -89t-156 -32q-84 0 -157.5 32t-129 89t-87 134t-31.5 167zM170 1010q0 -61 23.5 -118.5t65.5 -102t100 -71t128 -26.5t128.5 26.5t100.5 71 t65.5 101.5t23.5 119v45q0 61 -23.5 118.5t-65.5 101.5t-100.5 70.5t-128.5 26.5t-128 -26.5t-100 -70.5t-65.5 -101.5t-23.5 -118.5v-45zM334 811v428h184q61 0 96 -36t35 -93q0 -49 -22.5 -80t-57.5 -45l101 -174h-92l-91 164h-71v-164h-82zM416 1040h98q47 0 47 43v45 q0 43 -47 43h-98v-131z" />
<glyph unicode="&#xaf;" d="M328 1305v139h573v-139h-573z" />
<glyph unicode="&#xb0;" horiz-adv-x="958" d="M135 1102q0 76 26.5 140.5t73 111.5t109 73.5t135.5 26.5q74 0 136.5 -26.5t108.5 -73.5t72.5 -111.5t26.5 -140.5t-26.5 -140.5t-72.5 -111.5t-108.5 -73.5t-136.5 -26.5t-136 26.5t-108.5 73.5t-73 111.5t-26.5 140.5zM279 1102q0 -92 54 -156.5t146 -64.5t146.5 64.5 t54.5 156.5t-54.5 156.5t-146.5 64.5t-146 -64.5t-54 -156.5z" />
<glyph unicode="&#xb1;" d="M137 0v139h955v-139h-955zM137 719v139h400v408h155v-408h400v-139h-400v-408h-155v408h-400z" />
<glyph unicode="&#xb2;" horiz-adv-x="708" d="M70 1257q12 37 33.5 70t55.5 58.5t81 41t108 15.5q127 0 194.5 -62.5t67.5 -160.5q0 -90 -54 -157t-140 -132l-199 -154h420v-102h-557v117l266 215q59 49 93 97t34 103v13q0 53 -33.5 84.5t-99.5 31.5q-72 0 -107.5 -34.5t-52.5 -83.5z" />
<glyph unicode="&#xb3;" horiz-adv-x="708" d="M49 797l96 69q29 -45 70 -73.5t113 -28.5q78 0 117.5 32.5t39.5 92.5v12q0 113 -157 113h-92v104h81q78 0 116 30t38 77v8q0 51 -36 78.5t-97 27.5q-59 0 -100 -24.5t-70 -67.5l-88 70q35 51 97.5 88t164.5 37q117 0 191.5 -51.5t74.5 -143.5q0 -74 -47 -117t-112 -57v-6 q70 -12 121 -57t51 -127q0 -100 -79 -160.5t-214 -60.5q-113 0 -176.5 40.5t-102.5 94.5z" />
<glyph unicode="&#xb4;" d="M522 1247l174 348l150 -71l-217 -326z" />
<glyph unicode="&#xb5;" horiz-adv-x="1173" d="M174 -410v1467h164v-649q0 -141 61.5 -213t178.5 -72q49 0 95 12t83 38t58.5 63.5t21.5 91.5v729h163v-1057h-163v172h-9q-16 -37 -39.5 -73t-58.5 -63.5t-82 -44t-110 -16.5q-150 0 -207 107h-6l14 -174v-318h-164z" />
<glyph unicode="&#xb6;" horiz-adv-x="1335" d="M106 1022q0 82 31 156.5t85 130t126 88.5t156 33h663v-140h-137v-1595h-149v1595h-228v-1595h-149v919q-84 0 -156 33t-126 88.5t-85 129t-31 157.5z" />
<glyph unicode="&#xb7;" horiz-adv-x="667" d="M209 610v27q0 53 29.5 86t95.5 33t95.5 -33t29.5 -86v-27q0 -53 -29.5 -85.5t-95.5 -32.5t-95.5 32.5t-29.5 85.5z" />
<glyph unicode="&#xb8;" d="M436 -340l78 84q18 -23 49 -40t76 -17q39 0 64.5 15t25.5 48q0 29 -26.5 50.5t-112.5 33.5l-58 8l39 199h103l-33 -166l6 -6q39 12 80 12q59 0 99 -34.5t40 -100.5q0 -43 -18.5 -75.5t-50 -53t-72.5 -31t-86 -10.5q-84 0 -132 27.5t-71 56.5z" />
<glyph unicode="&#xb9;" horiz-adv-x="735" d="M66 1219l208 211h191v-654h201v-102h-553v102h223v549h-12l-185 -182z" />
<glyph unicode="&#xba;" horiz-adv-x="815" d="M90 1073q0 174 84 271.5t234 97.5t233.5 -97.5t83.5 -271.5t-83.5 -271t-233.5 -97t-234 97t-84 271zM229 1010q0 -88 44.5 -143.5t134.5 -55.5t134 55.5t44 143.5v127q0 88 -44 143t-134 55t-134.5 -55t-44.5 -143v-127z" />
<glyph unicode="&#xbb;" horiz-adv-x="1050" d="M106 274l281 308l-281 307l50 110l393 -340v-155l-393 -340zM534 274l281 308l-281 307l50 110l393 -340v-155l-393 -340z" />
<glyph unicode="&#xbc;" horiz-adv-x="1734" d="M66 1219l208 211h191v-654h201v-102h-553v102h223v549h-12l-185 -182zM350 0l996 1430h137l-996 -1430h-137zM1067 147v107l336 502h174v-510h115v-99h-115v-147h-123v147h-387zM1180 246h274v393h-8z" />
<glyph unicode="&#xbd;" horiz-adv-x="1785" d="M66 1219l208 211h191v-654h201v-102h-553v102h223v549h-12l-185 -182zM350 0l996 1430h137l-996 -1430h-137zM1147 584q12 37 33.5 69.5t55.5 58t81 41t108 15.5q127 0 194.5 -62.5t67.5 -160.5q0 -90 -54 -156.5t-140 -132.5l-199 -154h420v-102h-557v117l266 215 q59 49 93 98t34 102v13q0 53 -33.5 85t-99.5 32q-72 0 -107.5 -35t-52.5 -84z" />
<glyph unicode="&#xbe;" horiz-adv-x="1687" d="M49 797l96 69q29 -45 70 -73.5t113 -28.5q78 0 117.5 32.5t39.5 92.5v12q0 113 -157 113h-92v104h81q78 0 116 30t38 77v8q0 51 -36 78.5t-97 27.5q-59 0 -100 -24.5t-70 -67.5l-88 70q35 51 97.5 88t164.5 37q117 0 191.5 -51.5t74.5 -143.5q0 -74 -47 -117t-112 -57v-6 q70 -12 121 -57t51 -127q0 -100 -79 -160.5t-214 -60.5q-113 0 -176.5 40.5t-102.5 94.5zM303 0l996 1430h137l-996 -1430h-137zM1020 147v107l336 502h174v-510h115v-99h-115v-147h-123v147h-387zM1133 246h274v393h-8z" />
<glyph unicode="&#xbf;" horiz-adv-x="956" d="M76 -10q0 98 33.5 170.5t87 124t121 82t135.5 43.5v221h157v-336q-168 -8 -263 -82t-95 -203v-28q0 -104 65.5 -167t176.5 -63q119 0 189.5 67.5t94.5 172.5l152 -58q-18 -66 -54 -126t-90.5 -106t-128.5 -72.5t-170 -26.5q-190 0 -300.5 104.5t-110.5 282.5zM412 936v27 q0 53 29.5 85.5t95.5 32.5t95.5 -32.5t29.5 -85.5v-27q0 -53 -29.5 -86t-95.5 -33t-95.5 33t-29.5 86z" />
<glyph unicode="&#xc0;" horiz-adv-x="1312" d="M47 0l500 1430h219l500 -1430h-181l-143 422h-577l-144 -422h-174zM406 573h493l-242 697h-10zM428 1872l149 72l175 -349l-107 -49z" />
<glyph unicode="&#xc1;" horiz-adv-x="1312" d="M47 0l500 1430h219l500 -1430h-181l-143 422h-577l-144 -422h-174zM406 573h493l-242 697h-10zM567 1595l174 349l150 -72l-217 -326z" />
<glyph unicode="&#xc2;" horiz-adv-x="1312" d="M47 0l500 1430h219l500 -1430h-181l-143 422h-577l-144 -422h-174zM330 1622l227 293h205l227 -293l-90 -63l-240 239l-239 -239zM406 573h493l-242 697h-10z" />
<glyph unicode="&#xc3;" horiz-adv-x="1312" d="M47 0l500 1430h219l500 -1430h-181l-143 422h-577l-144 -422h-174zM315 1731q29 41 76 74.5t119 33.5q53 0 92 -18.5t72 -34.5q49 -27 82.5 -38t60.5 -11q35 0 61.5 14t57.5 41l67 -82q-29 -41 -75.5 -74.5t-118.5 -33.5q-53 0 -92 18t-72 35q-49 27 -83 38t-60 11 q-35 0 -61.5 -14.5t-57.5 -40.5zM406 573h493l-242 697h-10z" />
<glyph unicode="&#xc4;" horiz-adv-x="1312" d="M47 0l500 1430h219l500 -1430h-181l-143 422h-577l-144 -422h-174zM367 1710v25q0 43 24.5 69.5t77.5 26.5t77.5 -26.5t24.5 -69.5v-25q0 -43 -24.5 -69.5t-77.5 -26.5t-77.5 26.5t-24.5 69.5zM406 573h493l-242 697h-10zM747 1710v25q0 43 25 69.5t78 26.5t77.5 -26.5 t24.5 -69.5v-25q0 -43 -24.5 -69.5t-77.5 -26.5t-78 26.5t-25 69.5z" />
<glyph unicode="&#xc5;" horiz-adv-x="1312" d="M47 0l500 1430h219l500 -1430h-181l-143 422h-577l-144 -422h-174zM406 573h493l-242 697h-10zM422 1763q0 51 18.5 94.5t50 75t75.5 49t93 17.5t93.5 -17.5t76 -49t50 -74.5t18.5 -95q0 -51 -18.5 -94t-50 -74.5t-76 -49t-93.5 -17.5t-93 17.5t-75.5 49t-50 74.5 t-18.5 94zM541 1741q0 -53 31.5 -83t86.5 -30t87 30t32 83v45q0 53 -31.5 82.5t-87.5 29.5q-55 0 -86.5 -29.5t-31.5 -82.5v-45z" />
<glyph unicode="&#xc6;" horiz-adv-x="1857" d="M8 0l731 1430h987v-152h-702v-479h662v-152h-662v-495h702v-152h-872v420h-461l-209 -420h-176zM465 571h389v707h-27z" />
<glyph unicode="&#xc7;" horiz-adv-x="1271" d="M119 707q0 360 151.5 553.5t423.5 193.5q180 0 302 -82t190 -231l-139 -84q-43 111 -131.5 177t-221.5 66q-92 0 -164.5 -34.5t-123 -99t-77 -153.5t-26.5 -200v-213q0 -221 102.5 -346t288.5 -125q137 0 229.5 70.5t135.5 187.5l137 -86q-63 -141 -179 -227t-278 -97 l-20 -102l6 -6q39 12 80 12q59 0 99 -34.5t40 -100.5q0 -43 -18.5 -75.5t-50 -53t-72.5 -31t-86 -10.5q-84 0 -132 27.5t-71 56.5l78 84q18 -23 49 -40t76 -17q39 0 64.5 15t25.5 48q0 29 -26.5 50.5t-112.5 33.5l-58 8l27 135q-246 18 -382 203t-136 527z" />
<glyph unicode="&#xc8;" horiz-adv-x="1193" d="M190 0v1430h873v-152h-701v-479h660v-152h-660v-495h701v-152h-873zM391 1872l149 72l175 -349l-107 -49z" />
<glyph unicode="&#xc9;" horiz-adv-x="1193" d="M190 0v1430h873v-152h-701v-479h660v-152h-660v-495h701v-152h-873zM530 1595l174 349l150 -72l-217 -326z" />
<glyph unicode="&#xca;" horiz-adv-x="1193" d="M190 0v1430h873v-152h-701v-479h660v-152h-660v-495h701v-152h-873zM293 1622l227 293h205l227 -293l-90 -63l-240 239l-239 -239z" />
<glyph unicode="&#xcb;" horiz-adv-x="1193" d="M190 0v1430h873v-152h-701v-479h660v-152h-660v-495h701v-152h-873zM330 1710v25q0 43 24.5 69.5t77.5 26.5t77.5 -26.5t24.5 -69.5v-25q0 -43 -24.5 -69.5t-77.5 -26.5t-77.5 26.5t-24.5 69.5zM710 1710v25q0 43 25 69.5t78 26.5t77.5 -26.5t24.5 -69.5v-25 q0 -43 -24.5 -69.5t-77.5 -26.5t-78 26.5t-25 69.5z" />
<glyph unicode="&#xcc;" horiz-adv-x="819" d="M123 0v143h201v1143h-201v144h573v-144h-200v-1143h200v-143h-573zM180 1872l149 72l175 -349l-107 -49z" />
<glyph unicode="&#xcd;" horiz-adv-x="819" d="M123 0v143h201v1143h-201v144h573v-144h-200v-1143h200v-143h-573zM319 1595l174 349l150 -72l-217 -326z" />
<glyph unicode="&#xce;" horiz-adv-x="819" d="M82 1622l227 293h205l227 -293l-90 -63l-240 239l-239 -239zM123 0v143h201v1143h-201v144h573v-144h-200v-1143h200v-143h-573z" />
<glyph unicode="&#xcf;" horiz-adv-x="819" d="M119 1710v25q0 43 24.5 69.5t77.5 26.5t77.5 -26.5t24.5 -69.5v-25q0 -43 -24.5 -69.5t-77.5 -26.5t-77.5 26.5t-24.5 69.5zM123 0v143h201v1143h-201v144h573v-144h-200v-1143h200v-143h-573zM499 1710v25q0 43 25 69.5t78 26.5t77.5 -26.5t24.5 -69.5v-25 q0 -43 -24.5 -69.5t-77.5 -26.5t-78 26.5t-25 69.5z" />
<glyph unicode="&#xd0;" horiz-adv-x="1380" d="M35 690v131h162v609h479q133 0 241.5 -45.5t185.5 -134.5t118 -223t41 -312t-41 -312.5t-118 -223.5t-185.5 -134t-241.5 -45h-479v690h-162zM369 152h307q88 0 161.5 29.5t127 87t83 140.5t29.5 189v233q0 106 -29.5 189.5t-83 141t-127 87t-161.5 29.5h-307v-457h280 v-131h-280v-538z" />
<glyph unicode="&#xd1;" horiz-adv-x="1447" d="M190 0v1430h199l522 -873l172 -317h7v1190h167v-1430h-198l-522 872l-172 318h-7v-1190h-168zM379 1731q29 41 76 74.5t119 33.5q53 0 92 -18.5t72 -34.5q49 -27 82.5 -38t60.5 -11q35 0 61.5 14t57.5 41l67 -82q-29 -41 -75.5 -74.5t-118.5 -33.5q-53 0 -92 18t-72 35 q-49 27 -83 38t-60 11q-35 0 -61.5 -14.5t-57.5 -40.5z" />
<glyph unicode="&#xd2;" horiz-adv-x="1449" d="M119 715q0 180 43 317t121.5 231.5t190.5 142.5t251 48q137 0 249.5 -48t191.5 -142.5t122 -231.5t43 -317t-43 -318.5t-122 -231.5t-191.5 -141.5t-249.5 -48.5q-139 0 -251 48.5t-190.5 141.5t-121.5 231.5t-43 318.5zM303 596q0 -106 31 -192.5t87 -147.5t134 -94 t170 -33t170 33t134 94t87 147t31 193v238q0 106 -31 192t-87 147.5t-134 94t-170 32.5t-170 -32.5t-134 -94t-87 -147.5t-31 -192v-238zM494 1872l149 72l175 -349l-107 -49z" />
<glyph unicode="&#xd3;" horiz-adv-x="1449" d="M119 715q0 180 43 317t121.5 231.5t190.5 142.5t251 48q137 0 249.5 -48t191.5 -142.5t122 -231.5t43 -317t-43 -318.5t-122 -231.5t-191.5 -141.5t-249.5 -48.5q-139 0 -251 48.5t-190.5 141.5t-121.5 231.5t-43 318.5zM303 596q0 -106 31 -192.5t87 -147.5t134 -94 t170 -33t170 33t134 94t87 147t31 193v238q0 106 -31 192t-87 147.5t-134 94t-170 32.5t-170 -32.5t-134 -94t-87 -147.5t-31 -192v-238zM633 1595l174 349l150 -72l-217 -326z" />
<glyph unicode="&#xd4;" horiz-adv-x="1449" d="M119 715q0 180 43 317t121.5 231.5t190.5 142.5t251 48q137 0 249.5 -48t191.5 -142.5t122 -231.5t43 -317t-43 -318.5t-122 -231.5t-191.5 -141.5t-249.5 -48.5q-139 0 -251 48.5t-190.5 141.5t-121.5 231.5t-43 318.5zM303 596q0 -106 31 -192.5t87 -147.5t134 -94 t170 -33t170 33t134 94t87 147t31 193v238q0 106 -31 192t-87 147.5t-134 94t-170 32.5t-170 -32.5t-134 -94t-87 -147.5t-31 -192v-238zM396 1622l227 293h205l227 -293l-90 -63l-240 239l-239 -239z" />
<glyph unicode="&#xd5;" horiz-adv-x="1449" d="M119 715q0 180 43 317t121.5 231.5t190.5 142.5t251 48q137 0 249.5 -48t191.5 -142.5t122 -231.5t43 -317t-43 -318.5t-122 -231.5t-191.5 -141.5t-249.5 -48.5q-139 0 -251 48.5t-190.5 141.5t-121.5 231.5t-43 318.5zM303 596q0 -106 31 -192.5t87 -147.5t134 -94 t170 -33t170 33t134 94t87 147t31 193v238q0 106 -31 192t-87 147.5t-134 94t-170 32.5t-170 -32.5t-134 -94t-87 -147.5t-31 -192v-238zM381 1731q29 41 76 74.5t119 33.5q53 0 92 -18.5t72 -34.5q49 -27 82.5 -38t60.5 -11q35 0 61.5 14t57.5 41l67 -82 q-29 -41 -75.5 -74.5t-118.5 -33.5q-53 0 -92 18t-72 35q-49 27 -83 38t-60 11q-35 0 -61.5 -14.5t-57.5 -40.5z" />
<glyph unicode="&#xd6;" horiz-adv-x="1449" d="M119 715q0 180 43 317t121.5 231.5t190.5 142.5t251 48q137 0 249.5 -48t191.5 -142.5t122 -231.5t43 -317t-43 -318.5t-122 -231.5t-191.5 -141.5t-249.5 -48.5q-139 0 -251 48.5t-190.5 141.5t-121.5 231.5t-43 318.5zM303 596q0 -106 31 -192.5t87 -147.5t134 -94 t170 -33t170 33t134 94t87 147t31 193v238q0 106 -31 192t-87 147.5t-134 94t-170 32.5t-170 -32.5t-134 -94t-87 -147.5t-31 -192v-238zM433 1710v25q0 43 24.5 69.5t77.5 26.5t77.5 -26.5t24.5 -69.5v-25q0 -43 -24.5 -69.5t-77.5 -26.5t-77.5 26.5t-24.5 69.5zM813 1710 v25q0 43 25 69.5t78 26.5t77.5 -26.5t24.5 -69.5v-25q0 -43 -24.5 -69.5t-77.5 -26.5t-78 26.5t-25 69.5z" />
<glyph unicode="&#xd7;" d="M188 291l326 334l-326 333l101 101l325 -334l326 334l100 -101l-325 -333l325 -334l-100 -101l-326 334l-325 -334z" />
<glyph unicode="&#xd8;" horiz-adv-x="1449" d="M119 715q0 180 43 317t121.5 231.5t190.5 142.5t251 48q209 0 354 -108l123 176l117 -76l-139 -199q74 -94 112.5 -226t38.5 -306q0 -180 -43 -318.5t-122 -231.5t-191.5 -141.5t-249.5 -48.5q-209 0 -354 109l-123 -176l-117 76l139 198q-74 94 -112.5 226.5 t-38.5 306.5zM303 596q0 -78 17.5 -145.5t48.5 -122.5l618 884q-106 88 -262 88q-92 0 -170 -32.5t-134 -94t-87 -147.5t-31 -192v-238zM463 217q106 -88 262 -88q92 0 170 33t134 94t87 147t31 193v238q0 78 -17.5 145.5t-48.5 122.5z" />
<glyph unicode="&#xd9;" horiz-adv-x="1388" d="M180 586v844h172v-885q0 -205 76 -310.5t266 -105.5t266 105.5t76 310.5v885h172v-844q0 -156 -27.5 -270.5t-89 -190.5t-161 -113t-242.5 -37t-240.5 37t-157 113t-85 190.5t-25.5 270.5zM459 1872l149 72l175 -349l-107 -49z" />
<glyph unicode="&#xda;" horiz-adv-x="1388" d="M180 586v844h172v-885q0 -205 76 -310.5t266 -105.5t266 105.5t76 310.5v885h172v-844q0 -156 -27.5 -270.5t-89 -190.5t-161 -113t-242.5 -37t-240.5 37t-157 113t-85 190.5t-25.5 270.5zM598 1595l174 349l150 -72l-217 -326z" />
<glyph unicode="&#xdb;" horiz-adv-x="1388" d="M180 586v844h172v-885q0 -205 76 -310.5t266 -105.5t266 105.5t76 310.5v885h172v-844q0 -156 -27.5 -270.5t-89 -190.5t-161 -113t-242.5 -37t-240.5 37t-157 113t-85 190.5t-25.5 270.5zM361 1622l227 293h205l227 -293l-90 -63l-240 239l-239 -239z" />
<glyph unicode="&#xdc;" horiz-adv-x="1388" d="M180 586v844h172v-885q0 -205 76 -310.5t266 -105.5t266 105.5t76 310.5v885h172v-844q0 -156 -27.5 -270.5t-89 -190.5t-161 -113t-242.5 -37t-240.5 37t-157 113t-85 190.5t-25.5 270.5zM398 1710v25q0 43 24.5 69.5t77.5 26.5t77.5 -26.5t24.5 -69.5v-25 q0 -43 -24.5 -69.5t-77.5 -26.5t-77.5 26.5t-24.5 69.5zM778 1710v25q0 43 25 69.5t78 26.5t77.5 -26.5t24.5 -69.5v-25q0 -43 -24.5 -69.5t-77.5 -26.5t-78 26.5t-25 69.5z" />
<glyph unicode="&#xdd;" horiz-adv-x="1214" d="M27 1430h196l381 -689h6l381 689h197l-498 -859v-571h-172v565zM518 1595l174 349l150 -72l-217 -326z" />
<glyph unicode="&#xde;" horiz-adv-x="1241" d="M190 0v1430h172v-295h398q193 0 296 -111t103 -299t-103.5 -299t-295.5 -111h-398v-315h-172zM362 469h398q102 0 158.5 53t56.5 152v102q0 98 -56.5 151.5t-158.5 53.5h-398v-512z" />
<glyph unicode="&#xdf;" horiz-adv-x="1310" d="M59 913v144h172v10q0 106 30 194.5t86 150t138 95t189 33.5q104 0 187 -33.5t139.5 -95t86 -149.5t29.5 -195v-125h-96q-129 0 -199.5 -38t-70.5 -126q0 -78 42 -112.5t119 -53.5l62 -14q152 -35 217 -104.5t65 -188.5q0 -154 -98 -242t-272 -88q-123 0 -211 45.5 t-152 126.5l111 99q106 -131 264 -131q96 0 148.5 45t52.5 127q0 61 -29 104t-115 62l-63 14q-63 14 -117.5 35.5t-94.5 56.5t-63.5 86t-23.5 125q0 141 98 218t266 81v10q0 164 -68.5 243t-213.5 79t-212 -79t-67 -243v-1079h-164v913h-172z" />
<glyph unicode="&#xe0;" horiz-adv-x="1093" d="M90 295q0 150 109.5 229.5t341.5 79.5h209v105q0 113 -61.5 172t-188.5 59q-96 0 -161 -43t-108 -115l-98 92q43 86 137.5 146.5t237.5 60.5q193 0 299 -94t106 -262v-582h121v-143h-92q-92 0 -132 49t-50 123h-10q-35 -98 -115 -147.5t-191 -49.5q-168 0 -261 86 t-93 234zM262 279q0 -78 56.5 -121t152.5 -43q61 0 112.5 14t88.5 41t57.5 61.5t20.5 75.5v174h-218q-141 0 -205.5 -41t-64.5 -118v-43zM287 1524l149 71l175 -348l-107 -49z" />
<glyph unicode="&#xe1;" horiz-adv-x="1093" d="M90 295q0 150 109.5 229.5t341.5 79.5h209v105q0 113 -61.5 172t-188.5 59q-96 0 -161 -43t-108 -115l-98 92q43 86 137.5 146.5t237.5 60.5q193 0 299 -94t106 -262v-582h121v-143h-92q-92 0 -132 49t-50 123h-10q-35 -98 -115 -147.5t-191 -49.5q-168 0 -261 86 t-93 234zM262 279q0 -78 56.5 -121t152.5 -43q61 0 112.5 14t88.5 41t57.5 61.5t20.5 75.5v174h-218q-141 0 -205.5 -41t-64.5 -118v-43zM426 1247l174 348l150 -71l-217 -326z" />
<glyph unicode="&#xe2;" horiz-adv-x="1093" d="M90 295q0 150 109.5 229.5t341.5 79.5h209v105q0 113 -61.5 172t-188.5 59q-96 0 -161 -43t-108 -115l-98 92q43 86 137.5 146.5t237.5 60.5q193 0 299 -94t106 -262v-582h121v-143h-92q-92 0 -132 49t-50 123h-10q-35 -98 -115 -147.5t-191 -49.5q-168 0 -261 86 t-93 234zM189 1274l227 293h205l227 -293l-90 -64l-240 240l-239 -240zM262 279q0 -78 56.5 -121t152.5 -43q61 0 112.5 14t88.5 41t57.5 61.5t20.5 75.5v174h-218q-141 0 -205.5 -41t-64.5 -118v-43z" />
<glyph unicode="&#xe3;" horiz-adv-x="1093" d="M90 295q0 150 109.5 229.5t341.5 79.5h209v105q0 113 -61.5 172t-188.5 59q-96 0 -161 -43t-108 -115l-98 92q43 86 137.5 146.5t237.5 60.5q193 0 299 -94t106 -262v-582h121v-143h-92q-92 0 -132 49t-50 123h-10q-35 -98 -115 -147.5t-191 -49.5q-168 0 -261 86 t-93 234zM174 1382q29 41 76 75t119 34q53 0 92 -18.5t72 -34.5q49 -27 82.5 -38t60.5 -11q35 0 61.5 14t57.5 41l67 -82q-29 -41 -75.5 -75t-118.5 -34q-53 0 -92 18.5t-72 35.5q-49 27 -83 38t-60 11q-35 0 -61.5 -14.5t-57.5 -41.5zM262 279q0 -78 56.5 -121t152.5 -43 q61 0 112.5 14t88.5 41t57.5 61.5t20.5 75.5v174h-218q-141 0 -205.5 -41t-64.5 -118v-43z" />
<glyph unicode="&#xe4;" horiz-adv-x="1093" d="M90 295q0 150 109.5 229.5t341.5 79.5h209v105q0 113 -61.5 172t-188.5 59q-96 0 -161 -43t-108 -115l-98 92q43 86 137.5 146.5t237.5 60.5q193 0 299 -94t106 -262v-582h121v-143h-92q-92 0 -132 49t-50 123h-10q-35 -98 -115 -147.5t-191 -49.5q-168 0 -261 86 t-93 234zM228 1360v22q0 43 23.5 69t76.5 26t76.5 -26t23.5 -69v-22q0 -43 -23.5 -68.5t-76.5 -25.5t-76.5 25.5t-23.5 68.5zM262 279q0 -78 56.5 -121t152.5 -43q61 0 112.5 14t88.5 41t57.5 61.5t20.5 75.5v174h-218q-141 0 -205.5 -41t-64.5 -118v-43zM609 1360v22 q0 43 23.5 69t76.5 26t76.5 -26t23.5 -69v-22q0 -43 -23.5 -68.5t-76.5 -25.5t-76.5 25.5t-23.5 68.5z" />
<glyph unicode="&#xe5;" horiz-adv-x="1093" d="M90 295q0 150 109.5 229.5t341.5 79.5h209v105q0 113 -61.5 172t-188.5 59q-96 0 -161 -43t-108 -115l-98 92q43 86 137.5 146.5t237.5 60.5q193 0 299 -94t106 -262v-582h121v-143h-92q-92 0 -132 49t-50 123h-10q-35 -98 -115 -147.5t-191 -49.5q-168 0 -261 86 t-93 234zM262 279q0 -78 56.5 -121t152.5 -43q61 0 112.5 14t88.5 41t57.5 61.5t20.5 75.5v174h-218q-141 0 -205.5 -41t-64.5 -118v-43zM281 1415q0 51 18.5 94t50 75t75.5 49.5t93 17.5t93.5 -17.5t76 -49.5t50 -75t18.5 -94t-18.5 -94t-50 -75t-76 -49t-93.5 -17t-93 17 t-75.5 49t-50 75t-18.5 94zM400 1393q0 -53 31.5 -83t86.5 -30t87 29.5t32 83.5v45q0 53 -31.5 82.5t-87.5 29.5q-55 0 -86.5 -29.5t-31.5 -82.5v-45z" />
<glyph unicode="&#xe6;" horiz-adv-x="1769" d="M90 291q0 154 112.5 236.5t338.5 82.5h209v99q0 113 -61.5 172t-182.5 59q-102 0 -166 -41t-109 -115l-98 90q41 84 136.5 145.5t240.5 61.5q90 0 150.5 -25.5t98.5 -61.5t56.5 -76.5t26.5 -71.5h12q8 35 39 76t80 76.5t115.5 59t146.5 23.5q100 0 181 -38.5 t138.5 -107.5t88 -163t30.5 -207v-78h-760v-49q0 -68 21.5 -126t61.5 -101t98.5 -67.5t132.5 -24.5q203 0 291 180l116 -82q-51 -111 -156.5 -176.5t-242.5 -65.5q-84 0 -152.5 24t-119 59.5t-81 77.5t-38.5 77h-13q-6 -35 -35.5 -76t-78.5 -76.5t-119 -60.5t-158 -25 q-160 0 -255 85t-95 231zM262 279q0 -78 56.5 -121t154.5 -43q59 0 109.5 14t87.5 41t58.5 61.5t21.5 75.5v180h-218q-141 -4 -205.5 -46t-64.5 -119v-43zM913 610h584v23q0 141 -77 226t-203 85q-68 0 -123.5 -23.5t-95.5 -66.5t-62.5 -101.5t-22.5 -127.5v-15z" />
<glyph unicode="&#xe7;" horiz-adv-x="1030" d="M96 528q0 127 32 229.5t92.5 174.5t148 110.5t198.5 38.5q158 0 253 -68.5t143 -176.5l-138 -72q-29 82 -94 127t-164 45q-74 0 -129 -23.5t-92 -65.5t-55.5 -100.5t-18.5 -128.5v-180q0 -139 75 -228t220 -89q199 0 287 184l119 -80q-47 -104 -137.5 -170.5 t-223.5 -77.5l-20 -102l6 -6q39 12 80 12q59 0 99 -34.5t40 -100.5q0 -43 -18.5 -75.5t-50 -53t-72.5 -31t-86 -10.5q-84 0 -132 27.5t-71 56.5l78 84q18 -23 49 -40t76 -17q39 0 64.5 15t25.5 48q0 29 -26.5 50.5t-112.5 33.5l-58 8l27 135q-199 20 -306.5 168t-107.5 383z " />
<glyph unicode="&#xe8;" horiz-adv-x="1124" d="M96 528q0 125 34 227.5t96.5 175.5t149.5 111.5t195 38.5q106 0 190.5 -38.5t144 -107.5t91 -163t31.5 -207v-78h-760v-49q0 -68 21.5 -126t61.5 -101t98.5 -67.5t132.5 -24.5q100 0 174.5 47t115.5 135l117 -84q-51 -109 -159.5 -175.5t-258.5 -66.5q-109 0 -195.5 39 t-149 112t-96.5 174t-34 228zM268 610h584v23q0 141 -77 226t-204 85q-68 0 -123 -23.5t-95 -66.5t-62.5 -101.5t-22.5 -127.5v-15zM342 1524l149 71l175 -348l-107 -49z" />
<glyph unicode="&#xe9;" horiz-adv-x="1124" d="M96 528q0 125 34 227.5t96.5 175.5t149.5 111.5t195 38.5q106 0 190.5 -38.5t144 -107.5t91 -163t31.5 -207v-78h-760v-49q0 -68 21.5 -126t61.5 -101t98.5 -67.5t132.5 -24.5q100 0 174.5 47t115.5 135l117 -84q-51 -109 -159.5 -175.5t-258.5 -66.5q-109 0 -195.5 39 t-149 112t-96.5 174t-34 228zM268 610h584v23q0 141 -77 226t-204 85q-68 0 -123 -23.5t-95 -66.5t-62.5 -101.5t-22.5 -127.5v-15zM481 1247l174 348l150 -71l-217 -326z" />
<glyph unicode="&#xea;" horiz-adv-x="1124" d="M96 528q0 125 34 227.5t96.5 175.5t149.5 111.5t195 38.5q106 0 190.5 -38.5t144 -107.5t91 -163t31.5 -207v-78h-760v-49q0 -68 21.5 -126t61.5 -101t98.5 -67.5t132.5 -24.5q100 0 174.5 47t115.5 135l117 -84q-51 -109 -159.5 -175.5t-258.5 -66.5q-109 0 -195.5 39 t-149 112t-96.5 174t-34 228zM244 1274l227 293h205l227 -293l-90 -64l-240 240l-239 -240zM268 610h584v23q0 141 -77 226t-204 85q-68 0 -123 -23.5t-95 -66.5t-62.5 -101.5t-22.5 -127.5v-15z" />
<glyph unicode="&#xeb;" horiz-adv-x="1124" d="M96 528q0 125 34 227.5t96.5 175.5t149.5 111.5t195 38.5q106 0 190.5 -38.5t144 -107.5t91 -163t31.5 -207v-78h-760v-49q0 -68 21.5 -126t61.5 -101t98.5 -67.5t132.5 -24.5q100 0 174.5 47t115.5 135l117 -84q-51 -109 -159.5 -175.5t-258.5 -66.5q-109 0 -195.5 39 t-149 112t-96.5 174t-34 228zM268 610h584v23q0 141 -77 226t-204 85q-68 0 -123 -23.5t-95 -66.5t-62.5 -101.5t-22.5 -127.5v-15zM283 1360v22q0 43 23.5 69t76.5 26t76.5 -26t23.5 -69v-22q0 -43 -23.5 -68.5t-76.5 -25.5t-76.5 25.5t-23.5 68.5zM664 1360v22 q0 43 23.5 69t76.5 26t76.5 -26t23.5 -69v-22q0 -43 -23.5 -68.5t-76.5 -25.5t-76.5 25.5t-23.5 68.5z" />
<glyph unicode="&#xec;" horiz-adv-x="512" d="M27 1524l149 71l175 -348l-107 -49zM174 0v1057h164v-1057h-164z" />
<glyph unicode="&#xed;" horiz-adv-x="512" d="M166 1247l174 348l150 -71l-217 -326zM174 0v1057h164v-1057h-164z" />
<glyph unicode="&#xee;" horiz-adv-x="512" d="M-71 1274l227 293h205l227 -293l-90 -64l-240 240l-239 -240zM174 0v1057h164v-1057h-164z" />
<glyph unicode="&#xef;" horiz-adv-x="512" d="M-32 1360v22q0 43 23.5 69t76.5 26t76.5 -26t23.5 -69v-22q0 -43 -23.5 -68.5t-76.5 -25.5t-76.5 25.5t-23.5 68.5zM174 0v1057h164v-1057h-164zM349 1360v22q0 43 23.5 69t76.5 26t76.5 -26t23.5 -69v-22q0 -43 -23.5 -68.5t-76.5 -25.5t-76.5 25.5t-23.5 68.5z" />
<glyph unicode="&#xf0;" horiz-adv-x="1136" d="M96 504q0 117 33 214t93.5 166.5t147.5 108.5t195 39q100 0 168 -53t98 -148l9 5q-23 117 -93.5 224t-168.5 200l-162 -115l-64 84l144 102q-66 53 -133.5 98.5t-135.5 86.5h252q31 -18 66 -43t69 -56l174 125l68 -84l-160 -115q63 -63 125 -143t109 -178t75.5 -215 t28.5 -252q0 -143 -34.5 -251.5t-97 -181.5t-148.5 -110t-189 -37q-109 0 -195.5 39t-147 109t-93.5 167t-33 214zM272 436q0 -147 80 -233t213 -86t213 86t80 233v135q0 147 -80 233.5t-213 86.5t-213 -86t-80 -234v-135z" />
<glyph unicode="&#xf1;" horiz-adv-x="1163" d="M174 0v1057h164v-172h8q39 90 109.5 143t189.5 53q164 0 259 -105.5t95 -297.5v-678h-163v649q0 285 -240 285q-49 0 -95 -12.5t-83 -37t-58.5 -62.5t-21.5 -89v-733h-164zM247 1382q29 41 76 75t119 34q53 0 92 -18.5t72 -34.5q49 -27 82.5 -38t60.5 -11q35 0 61.5 14 t57.5 41l67 -82q-29 -41 -75.5 -75t-118.5 -34q-53 0 -92 18.5t-72 35.5q-49 27 -83 38t-60 11q-35 0 -61.5 -14.5t-57.5 -41.5z" />
<glyph unicode="&#xf2;" horiz-adv-x="1146" d="M96 528q0 125 35 227.5t97.5 175.5t150.5 111.5t194 38.5t193.5 -38.5t151 -111.5t98.5 -175.5t35 -227.5q0 -127 -35 -228t-98.5 -174t-151 -112t-193.5 -39t-194 39t-150.5 112t-97.5 174t-35 228zM272 453q0 -168 84 -250t217 -82t217 82t84 250v151q0 168 -83.5 250 t-217.5 82q-133 0 -217 -82t-84 -250v-151zM344 1524l149 71l175 -348l-107 -49z" />
<glyph unicode="&#xf3;" horiz-adv-x="1146" d="M96 528q0 125 35 227.5t97.5 175.5t150.5 111.5t194 38.5t193.5 -38.5t151 -111.5t98.5 -175.5t35 -227.5q0 -127 -35 -228t-98.5 -174t-151 -112t-193.5 -39t-194 39t-150.5 112t-97.5 174t-35 228zM272 453q0 -168 84 -250t217 -82t217 82t84 250v151q0 168 -83.5 250 t-217.5 82q-133 0 -217 -82t-84 -250v-151zM483 1247l174 348l150 -71l-217 -326z" />
<glyph unicode="&#xf4;" horiz-adv-x="1146" d="M96 528q0 125 35 227.5t97.5 175.5t150.5 111.5t194 38.5t193.5 -38.5t151 -111.5t98.5 -175.5t35 -227.5q0 -127 -35 -228t-98.5 -174t-151 -112t-193.5 -39t-194 39t-150.5 112t-97.5 174t-35 228zM246 1274l227 293h205l227 -293l-90 -64l-240 240l-239 -240zM272 453 q0 -168 84 -250t217 -82t217 82t84 250v151q0 168 -83.5 250t-217.5 82q-133 0 -217 -82t-84 -250v-151z" />
<glyph unicode="&#xf5;" horiz-adv-x="1146" d="M96 528q0 125 35 227.5t97.5 175.5t150.5 111.5t194 38.5t193.5 -38.5t151 -111.5t98.5 -175.5t35 -227.5q0 -127 -35 -228t-98.5 -174t-151 -112t-193.5 -39t-194 39t-150.5 112t-97.5 174t-35 228zM231 1382q29 41 76 75t119 34q53 0 92 -18.5t72 -34.5 q49 -27 82.5 -38t60.5 -11q35 0 61.5 14t57.5 41l67 -82q-29 -41 -75.5 -75t-118.5 -34q-53 0 -92 18.5t-72 35.5q-49 27 -83 38t-60 11q-35 0 -61.5 -14.5t-57.5 -41.5zM272 453q0 -168 84 -250t217 -82t217 82t84 250v151q0 168 -83.5 250t-217.5 82q-133 0 -217 -82 t-84 -250v-151z" />
<glyph unicode="&#xf6;" horiz-adv-x="1146" d="M96 528q0 125 35 227.5t97.5 175.5t150.5 111.5t194 38.5t193.5 -38.5t151 -111.5t98.5 -175.5t35 -227.5q0 -127 -35 -228t-98.5 -174t-151 -112t-193.5 -39t-194 39t-150.5 112t-97.5 174t-35 228zM272 453q0 -168 84 -250t217 -82t217 82t84 250v151q0 168 -83.5 250 t-217.5 82q-133 0 -217 -82t-84 -250v-151zM285 1360v22q0 43 23.5 69t76.5 26t76.5 -26t23.5 -69v-22q0 -43 -23.5 -68.5t-76.5 -25.5t-76.5 25.5t-23.5 68.5zM666 1360v22q0 43 23.5 69t76.5 26t76.5 -26t23.5 -69v-22q0 -43 -23.5 -68.5t-76.5 -25.5t-76.5 25.5 t-23.5 68.5z" />
<glyph unicode="&#xf7;" d="M137 555v139h955v-139h-955zM487 205v45q0 41 28 69.5t99 28.5q72 0 99.5 -28.5t27.5 -69.5v-45q0 -41 -27.5 -70t-99.5 -29t-99.5 29t-27.5 70zM487 999v45q0 41 28 70t99 29q72 0 99.5 -29t27.5 -70v-45q0 -41 -27.5 -69.5t-99.5 -28.5t-99.5 28.5t-27.5 69.5z" />
<glyph unicode="&#xf8;" horiz-adv-x="1163" d="M72 -12l137 172q-104 145 -105 368q0 125 35 227.5t97.5 175.5t150.5 111.5t195 38.5q86 0 158.5 -26.5t131.5 -73.5l127 158l93 -70l-138 -174q49 -70 77 -163t28 -204q0 -127 -35 -228t-98.5 -174t-150.5 -112t-193 -39q-170 0 -291 99l-127 -156zM281 453 q0 -98 30 -168l471 583q-80 68 -200 68q-133 0 -217 -82t-84 -250v-151zM381 188q76 -67 201 -67q133 0 217 82t84 250v151q0 49 -8.5 90t-22.5 76z" />
<glyph unicode="&#xf9;" horiz-adv-x="1163" d="M164 379v678h164v-649q0 -285 241 -285q49 0 95.5 12t82 37t57 62.5t21.5 91.5v731h164v-1057h-164v172h-8q-16 -37 -39.5 -73t-58.5 -63.5t-84 -44t-115 -16.5q-164 0 -260 105.5t-96 298.5zM348 1524l149 71l175 -348l-107 -49z" />
<glyph unicode="&#xfa;" horiz-adv-x="1163" d="M164 379v678h164v-649q0 -285 241 -285q49 0 95.5 12t82 37t57 62.5t21.5 91.5v731h164v-1057h-164v172h-8q-16 -37 -39.5 -73t-58.5 -63.5t-84 -44t-115 -16.5q-164 0 -260 105.5t-96 298.5zM487 1247l174 348l150 -71l-217 -326z" />
<glyph unicode="&#xfb;" horiz-adv-x="1163" d="M164 379v678h164v-649q0 -285 241 -285q49 0 95.5 12t82 37t57 62.5t21.5 91.5v731h164v-1057h-164v172h-8q-16 -37 -39.5 -73t-58.5 -63.5t-84 -44t-115 -16.5q-164 0 -260 105.5t-96 298.5zM250 1274l227 293h205l227 -293l-90 -64l-240 240l-239 -240z" />
<glyph unicode="&#xfc;" horiz-adv-x="1163" d="M164 379v678h164v-649q0 -285 241 -285q49 0 95.5 12t82 37t57 62.5t21.5 91.5v731h164v-1057h-164v172h-8q-16 -37 -39.5 -73t-58.5 -63.5t-84 -44t-115 -16.5q-164 0 -260 105.5t-96 298.5zM289 1360v22q0 43 23.5 69t76.5 26t76.5 -26t23.5 -69v-22q0 -43 -23.5 -68.5 t-76.5 -25.5t-76.5 25.5t-23.5 68.5zM670 1360v22q0 43 23.5 69t76.5 26t76.5 -26t23.5 -69v-22q0 -43 -23.5 -68.5t-76.5 -25.5t-76.5 25.5t-23.5 68.5z" />
<glyph unicode="&#xfd;" horiz-adv-x="1021" d="M35 1057h164l254 -719l49 -172h10l57 172l256 719h162l-473 -1303q-18 -47 -36.5 -78.5t-45 -50t-66.5 -27t-98 -8.5h-84v144h166l80 225zM422 1247l174 348l150 -71l-217 -326z" />
<glyph unicode="&#xfe;" horiz-adv-x="1187" d="M174 -410v1926h164v-631h8q41 100 120 148t189 48q98 0 178 -38.5t136.5 -110.5t86 -174.5t29.5 -229.5t-29.5 -229t-86 -174t-136 -111t-178.5 -39q-215 0 -309 197h-8v-582h-164zM338 338q0 -51 21.5 -91t58.5 -67.5t87 -42t105 -14.5q139 0 219 87t80 228v180 q0 141 -79.5 228.5t-219.5 87.5q-55 0 -105 -15.5t-87 -42t-58.5 -64.5t-21.5 -81v-393z" />
<glyph unicode="&#xff;" horiz-adv-x="1021" d="M35 1057h164l254 -719l49 -172h10l57 172l256 719h162l-473 -1303q-18 -47 -36.5 -78.5t-45 -50t-66.5 -27t-98 -8.5h-84v144h166l80 225zM224 1360v22q0 43 23.5 69t76.5 26t76.5 -26t23.5 -69v-22q0 -43 -23.5 -68.5t-76.5 -25.5t-76.5 25.5t-23.5 68.5zM605 1360v22 q0 43 23.5 69t76.5 26t76.5 -26t23.5 -69v-22q0 -43 -23.5 -68.5t-76.5 -25.5t-76.5 25.5t-23.5 68.5z" />
<glyph unicode="&#x152;" horiz-adv-x="2017" d="M119 715q0 180 43 318t125 231.5t199.5 141.5t265.5 48q59 0 131.5 -7t130.5 -17h872v-152h-702v-479h661v-152h-661v-495h702v-152h-872q-57 -10 -130 -17.5t-132 -7.5q-147 0 -265 48.5t-200 141.5t-125 231.5t-43 318.5zM303 596q0 -106 28.5 -192.5t86 -147.5 t145.5 -94t209 -33q57 0 120.5 9t119.5 28v1098q-55 18 -119 27t-121 9q-121 0 -209 -32.5t-145.5 -94t-86 -147.5t-28.5 -192v-238z" />
<glyph unicode="&#x153;" horiz-adv-x="1906" d="M96 528q0 125 35 227.5t97.5 175.5t150.5 111.5t194 38.5q135 0 235.5 -60t149.5 -175h13q45 109 143 172t240 63q104 0 188 -37.5t144.5 -106.5t92 -164t31.5 -208v-78h-759v-49q0 -68 21.5 -126t61.5 -101t98 -67.5t132 -24.5q102 0 176 47t117 135l115 -84 q-51 -109 -155 -175.5t-251 -66.5q-78 0 -140.5 18.5t-111.5 51.5t-86 76t-59 90h-11q-47 -102 -149 -169t-236 -67q-106 0 -194 39t-150.5 112t-97.5 174t-35 228zM272 453q0 -168 84 -250t217 -82t217 82t84 250v151q0 168 -83.5 250t-217.5 82q-133 0 -217 -82t-84 -250 v-151zM1051 610h583v23q0 141 -76.5 226t-203.5 85q-68 0 -123 -23.5t-95 -66.5t-62.5 -101.5t-22.5 -127.5v-15z" />
<glyph unicode="&#x178;" horiz-adv-x="1214" d="M27 1430h196l381 -689h6l381 689h197l-498 -859v-571h-172v565zM318 1710v25q0 43 24.5 69.5t77.5 26.5t77.5 -26.5t24.5 -69.5v-25q0 -43 -24.5 -69.5t-77.5 -26.5t-77.5 26.5t-24.5 69.5zM698 1710v25q0 43 25 69.5t78 26.5t77.5 -26.5t24.5 -69.5v-25 q0 -43 -24.5 -69.5t-77.5 -26.5t-78 26.5t-25 69.5z" />
<glyph unicode="&#x2c6;" d="M285 1274l227 293h205l227 -293l-90 -64l-240 240l-239 -240z" />
<glyph unicode="&#x2dc;" d="M270 1382q29 41 76 75t119 34q53 0 92 -18.5t72 -34.5q49 -27 82.5 -38t60.5 -11q35 0 61.5 14t57.5 41l67 -82q-29 -41 -75.5 -75t-118.5 -34q-53 0 -92 18.5t-72 35.5q-49 27 -83 38t-60 11q-35 0 -61.5 -14.5t-57.5 -41.5z" />
<glyph unicode="&#x2000;" horiz-adv-x="999" />
<glyph unicode="&#x2001;" horiz-adv-x="1999" />
<glyph unicode="&#x2002;" horiz-adv-x="999" />
<glyph unicode="&#x2003;" horiz-adv-x="1999" />
<glyph unicode="&#x2004;" horiz-adv-x="666" />
<glyph unicode="&#x2005;" horiz-adv-x="499" />
<glyph unicode="&#x2006;" horiz-adv-x="333" />
<glyph unicode="&#x2007;" horiz-adv-x="333" />
<glyph unicode="&#x2008;" horiz-adv-x="249" />
<glyph unicode="&#x2009;" horiz-adv-x="399" />
<glyph unicode="&#x200a;" horiz-adv-x="111" />
<glyph unicode="&#x2010;" horiz-adv-x="817" d="M141 535v176h535v-176h-535z" />
<glyph unicode="&#x2011;" horiz-adv-x="817" d="M141 535v176h535v-176h-535z" />
<glyph unicode="&#x2012;" horiz-adv-x="817" d="M141 535v176h535v-176h-535z" />
<glyph unicode="&#x2013;" horiz-adv-x="1204" d="M74 545v155h1056v-155h-1056z" />
<glyph unicode="&#x2014;" horiz-adv-x="1597" d="M74 545v155h1450v-155h-1450z" />
<glyph unicode="&#x2018;" horiz-adv-x="559" d="M145 1124v29q0 84 49.5 185.5t137.5 177.5h137q-61 -66 -99 -124.5t-55 -129.5q41 -10 60.5 -39t19.5 -70v-29q0 -53 -29.5 -86.5t-95.5 -33.5t-95.5 33.5t-29.5 86.5z" />
<glyph unicode="&#x2019;" horiz-adv-x="559" d="M90 1024q61 66 99 124t55 130q-41 10 -60.5 39t-19.5 69v29q0 53 29.5 87t95.5 34t95.5 -34t29.5 -87v-29q0 -84 -49.5 -185t-137.5 -177h-137z" />
<glyph unicode="&#x201a;" horiz-adv-x="561" d="M72 -238q61 66 99 124.5t54 129.5q-41 10 -60.5 39t-19.5 70v29q0 53 29.5 86.5t95.5 33.5t95.5 -33.5t29.5 -86.5v-29q0 -84 -49 -185.5t-137 -177.5h-137z" />
<glyph unicode="&#x201c;" horiz-adv-x="972" d="M145 1124v29q0 84 49.5 185.5t137.5 177.5h137q-61 -66 -99 -124.5t-55 -129.5q41 -10 60.5 -39t19.5 -70v-29q0 -53 -29.5 -86.5t-95.5 -33.5t-95.5 33.5t-29.5 86.5zM559 1124v29q0 84 49.5 185.5t137.5 177.5h137q-61 -66 -99 -124.5t-55 -129.5q41 -10 60.5 -39 t19.5 -70v-29q0 -53 -29.5 -86.5t-95.5 -33.5t-95.5 33.5t-29.5 86.5z" />
<glyph unicode="&#x201d;" horiz-adv-x="970" d="M90 1024q61 66 99 124t55 130q-41 10 -60.5 39t-19.5 69v29q0 53 29.5 87t95.5 34t95.5 -34t29.5 -87v-29q0 -84 -49.5 -185t-137.5 -177h-137zM502 1024q61 66 99 124t55 130q-41 10 -60.5 39t-19.5 69v29q0 53 29.5 87t95.5 34t95.5 -34t29.5 -87v-29q0 -84 -49.5 -185 t-137.5 -177h-137z" />
<glyph unicode="&#x201e;" horiz-adv-x="972" d="M72 -238q61 66 99 124.5t54 129.5q-41 10 -60.5 39t-19.5 70v29q0 53 29.5 86.5t95.5 33.5t95.5 -33.5t29.5 -86.5v-29q0 -84 -49 -185.5t-137 -177.5h-137zM484 -238q61 66 99 124.5t54 129.5q-41 10 -60.5 39t-19.5 70v29q0 53 29.5 86.5t95.5 33.5t95.5 -33.5 t29.5 -86.5v-29q0 -84 -49 -185.5t-137 -177.5h-137z" />
<glyph unicode="&#x2022;" horiz-adv-x="811" d="M156 594v57q0 90 56 151.5t194 61.5q137 0 193 -61.5t56 -151.5v-57q0 -90 -56 -151.5t-193 -61.5t-193.5 61.5t-56.5 151.5z" />
<glyph unicode="&#x2026;" horiz-adv-x="1644" d="M154 94v27q0 53 29.5 86t95.5 33t95 -33t29 -86v-27q0 -53 -29 -86t-95 -33t-95.5 33t-29.5 86zM697 94v27q0 53 29.5 86t95.5 33t95 -33t29 -86v-27q0 -53 -29 -86t-95 -33t-95.5 33t-29.5 86zM1241 94v27q0 53 29.5 86t95.5 33t95 -33t29 -86v-27q0 -53 -29 -86 t-95 -33t-95.5 33t-29.5 86z" />
<glyph unicode="&#x202f;" horiz-adv-x="399" />
<glyph unicode="&#x2039;" horiz-adv-x="622" d="M74 504v155l393 340l49 -110l-280 -307l280 -308l-49 -110z" />
<glyph unicode="&#x203a;" horiz-adv-x="622" d="M106 274l281 308l-281 307l50 110l393 -340v-155l-393 -340z" />
<glyph unicode="&#x205f;" horiz-adv-x="499" />
<glyph unicode="&#x20ac;" horiz-adv-x="1280" d="M119 715q0 358 151.5 548.5t421.5 190.5q180 0 300 -83t188 -230l-133 -82q-43 111 -133.5 177.5t-221.5 66.5q-162 0 -262 -96.5t-125 -256.5h526v-137h-534v-197h534v-137h-526q27 -160 126 -256t261 -96q135 0 227.5 71.5t137.5 188.5l133 -88q-33 -70 -78 -129 t-105.5 -102t-138.5 -68t-176 -25q-270 0 -421.5 190.5t-151.5 549.5z" />
<glyph unicode="&#x2122;" horiz-adv-x="1347" d="M66 1337v93h469v-93h-183v-479h-102v479h-184zM641 858v572h129l141 -273h7l139 273h123v-572h-95v258l2 170h-8l-168 -317l-170 317h-8l4 -170v-258h-96z" />
<glyph unicode="&#x25fc;" horiz-adv-x="1054" d="M0 0v1055h1055v-1055h-1055z" />
<glyph unicode="&#xfb02;" horiz-adv-x="1220" d="M59 913v144h172v213q0 111 57.5 178.5t174.5 67.5h160v-144h-228v-315h228v-144h-228v-913h-164v913h-172zM838 170v1346h164v-1373h156v-143h-146q-86 0 -130 48t-44 122z" />
</font>
</defs>
</svg>
